#TITLE:Dream High;
#SUBTITLE:Expi3nze & sdo;
#ARTIST:Dream High Ost;
#TITLETRANSLIT:;
#SUBTITLETRANSLIT:;
#ARTISTTRANSLIT:;
#CREDIT:;
#BANNER:bn.png;
#BACKGROUND:bg.png;
#LYRICSPATH:;
#CDTITLE:cdtitle.png;
#MUSIC:Dream High.mp3;
#OFFSET:-0.452;
#SAMPLESTART:54.311;
#SAMPLELENGTH:12.000;
#SELECTABLE:YES;
#BPMS:0.000=126.998,1.000=127.004,2.000=126.998,4.000=127.004,5.000=126.998,7.000=127.004,8.000=126.998,10.000=127.004,11.000=126.998,13.000=127.004,14.000=126.998,16.000=127.004,17.000=126.998,18.000=127.004,19.000=126.998,21.000=127.004,22.000=126.998,24.000=127.004,25.000=126.998,27.000=127.004,28.000=126.998,30.000=127.004,31.000=126.998,33.000=127.004,34.000=126.998,35.000=127.004,36.000=126.998,38.000=127.004,39.000=126.998,41.000=127.004,42.000=126.998,44.000=127.004,45.000=126.998,47.000=127.004,48.000=126.998,50.000=127.004,51.000=126.998,52.000=127.004,53.000=126.998,55.000=127.004,56.000=126.998,58.000=127.004,59.000=126.998,61.000=127.004,62.000=126.998,64.000=127.004,65.000=126.998,67.000=127.004,68.000=126.998,69.000=127.004,70.000=126.998,72.000=127.004,73.000=126.998,75.000=127.004,76.000=126.998,78.000=127.004,79.000=126.998,81.000=127.004,82.000=126.998,83.000=127.004,84.000=126.998,86.000=127.004,87.000=126.998,89.000=127.004,90.000=126.998,92.000=127.004,93.000=126.998,95.000=127.004,96.000=126.998,98.000=127.004,99.000=126.998,101.000=127.004,102.000=126.998,103.000=127.004,104.000=126.998,106.000=127.004,107.000=126.998,109.000=127.004,110.000=126.998,112.000=127.004,113.000=126.998,115.000=127.004,116.000=126.998,118.000=127.004,119.000=126.998,120.000=127.004,121.000=126.998,123.000=127.004,124.000=126.998,126.000=127.004,127.000=126.998,129.000=127.004,130.000=126.998,132.000=127.004,133.000=126.998,135.000=127.004,136.000=126.998,137.000=127.004,138.000=126.998,140.000=127.004,141.000=126.998,143.000=127.004,144.000=126.998,146.000=127.004,147.000=126.998,149.000=127.004,150.000=126.998,152.000=127.004,153.000=126.998,154.000=127.004,155.000=126.998,157.000=127.004,158.000=126.998,160.000=127.004,161.000=126.998,163.000=127.004,164.000=126.998,166.000=127.004,167.000=126.998,168.000=127.004,169.000=126.998,171.000=127.004,172.000=126.998,174.000=127.004,175.000=126.998,177.000=127.004,178.000=126.998,180.000=127.004,181.000=126.998,183.000=127.004,184.000=126.998,185.000=127.004,186.000=126.998,188.000=127.004,189.000=126.998,191.000=127.004,192.000=126.998,194.000=127.004,195.000=126.998,197.000=127.004,198.000=126.998,200.000=127.004,201.000=126.998,203.000=127.004,204.000=126.998,206.000=127.004,207.000=126.998,208.000=127.004,209.000=126.998,211.000=127.004,212.000=126.998,214.000=127.004,215.000=126.998,217.000=127.004,218.000=126.998,220.000=127.004,221.000=126.998,223.000=127.004,224.000=126.998,225.000=127.004,226.000=126.998,228.000=127.004,229.000=126.998,231.000=127.004,232.000=126.998,234.000=127.004,235.000=126.998,237.000=127.004,238.000=126.998,239.000=127.004,240.000=126.998,242.000=127.004,243.000=126.998,245.000=127.004,246.000=126.998,248.000=127.004,249.000=126.998,251.000=127.004,252.000=126.998,254.000=127.004,255.000=126.998,256.000=127.004,257.000=126.998,259.000=127.004,260.000=126.998,262.000=127.004,263.000=126.998,265.000=127.004,266.000=126.998,268.000=127.004,269.000=126.998,271.000=127.004,272.000=126.998,273.000=127.004,274.000=126.998,276.000=127.004,277.000=126.998,279.000=127.004,280.000=126.998,282.000=127.004,283.000=126.998,285.000=127.004,286.000=126.998,288.000=127.004,289.000=126.998,290.000=127.004,291.000=126.998,293.000=127.004,294.000=126.998,296.000=127.004,297.000=126.998,299.000=127.004,300.000=126.998,302.000=127.004,303.000=126.998,305.000=127.004,306.000=126.998,307.000=127.004,308.000=126.998,310.000=127.004,311.000=126.998,313.000=127.004,314.000=126.998,316.000=127.004,317.000=126.998,319.000=127.004,320.000=126.998,321.000=127.004,322.000=126.998,324.000=127.004,325.000=126.998,327.000=127.004,328.000=126.998,330.000=127.004;
#STOPS:;
#BGCHANGES:;
// cache tags:
#FIRSTBEAT:3.000;
#LASTBEAT:328.000;
#SONGFILENAME:Songs/SDO pack 2/Dream High (Ost)/Dream High.sm;
#HASMUSIC:1;
#HASBANNER:1;
#MUSICLENGTH:157.212;
// end cache tags

//---------------dance-single - ----------------
#NOTES:
     dance-single:
     :
     Hard:
     17:
     1.000,1.000,1.000,0.197,0.601,809.000,352.000,31.000,0.000,10.000:
0000
0000
0000
0000
0000
0000
1010
0101
,
1010
0101
0011
1100
0000
0000
0101
1010
,
1100
0011
1001
0110
1001
0110
0011
1100
,
1100
0011
1001
1001
0000
0000
1001
1100
,
0011
1001
1100
0011
0011
1100
1001
1000
,
0001
1001
1000
0010
0000
0000
1100
1000
,
0001
1001
1000
1001
0011
1000
0110
0100
,
0010
0110
0100
0010
0000
0000
1010
1000
,
0001
0101
0010
0100
0110
0010
1001
1000
,
0001
1001
1000
0001
0000
0000
1100
0001
,
1000
1001
0001
0101
1010
0101
0011
1000
,
0001
0000
1001
0000
0100
0000
0010
0000
0000
0000
0000
0000
1001
0000
1000
1000
,
0011
0000
0001
0001
0110
0000
0100
0100
0011
0000
1000
1000
0001
0000
1000
1000
,
0011
0000
0001
1000
1000
0000
1000
1000
0011
0000
1000
1000
0001
0000
1000
1000
,
0011
0000
0001
1000
1000
0000
0001
0000
0011
0001
1000
0000
1000
0000
0001
0001
,
1100
0000
1000
0001
0001
0000
0001
0001
1100
0000
0001
0001
1000
0000
0001
0001
,
1100
0000
1000
0001
0001
0000
1000
0001
1100
1000
0001
0000
1010
0000
0101
0000
,
1010
0101
0011
1100
1000
0000
0101
1010
,
1100
0011
1001
0110
1001
0110
0011
1100
,
0011
1001
1100
0011
0001
0000
1100
0011
,
1100
1001
0011
1100
1100
0011
0110
0010
,
1100
0000
0001
0000
1000
0000
1000
1000
0011
0000
1000
1000
0101
0000
0001
0001
,
1000
1001
0101
1010
0101
1010
1100
0011
,
0011
0000
1100
0000
0001
0000
0001
0001
1100
0000
0001
0001
1000
0000
0001
0001
,
1000
1001
0110
0110
1001
0110
0101
1010
,
1100
1000
0101
1010
0101
1010
0001
1001
,
1000
0000
1001
0000
0000
0000
1001
0000
0010
0010
1100
0000
1100
0000
0001
0001
,
1100
0000
0011
0000
0001
0000
1001
0000
1100
0000
0011
0000
0101
0000
0100
0100
,
1010
0000
0010
0010
1100
0000
0001
0001
1100
1000
0012
0010
1100
0000
0010
0010
,
1100
0003
0120
0100
1000
0000
0001
0031
1100
0000
2001
0001
0010
3000
0110
0000
,
1001
0000
0110
0000
0100
0000
0010
0000
0100
0000
0210
0000
0001
0000
1000
1000
,
0011
0300
1002
1000
1000
0000
0010
0013
1100
0000
2010
0010
0001
3000
0101
0000
,
1010
0000
0101
0000
0000
0000
0101
0000
1100
1000
0021
0000
1000
0000
0001
0031
,
1100
0000
2001
0001
0010
3000
0110
0000
1001
0000
0110
0000
0110
0000
1001
0000
,
1001
0000
0001
0000
1010
0000
0101
0000
0011
0001
1200
0000
0010
0300
0110
0000
,
0110
0000
0100
0000
0011
0000
1000
1000
0011
0000
0102
0100
1000
0003
1010
1000
,
0011
0000
1000
1000
0102
0000
0110
0100
1013
0010
2100
0100
0011
0000
0100
0100
,
3001
0000
1002
1000
1000
0000
0010
0013
1100
0000
1000
1000
0001
0000
1001
0000
,
1100
0000
0011
0000
0100
0100
0011
0000
1000
0010
1002
0000
1000
0000
0010
0013
,
1100
0000
2001
0001
0100
0000
0010
3010
1001
0000
0201
0001
0020
0300
1100
0030
,
1002
0000
0110
0003
2100
0000
0001
3001
0120
0100
2001
0030
0001
0000
0100
3100
,
0011
0000
1002
1000
0100
0003
0110
0000
1001
0000
0120
0100
1000
0030
1001
0000
,
0011
0000
1000
1000
0101
0000
1010
0000
0101
0000
2010
0000
0010
3000
0120
0000
,
0001
0030
1100
0000
0001
0000
0001
0001
1100
0000
0012
0010
1000
0003
1001
0000
,
1001
0000
1000
1000
0011
0000
1000
1000
0011
0001
1000
1000
0110
0000
0100
0100
,
0001
0000
0000
0001
1000
0000
0010
0100
0001
0000
0001
0000
1000
0000
0010
0010
,
0100
0100
1001
0010
0001
0001
1010
0000
1001
0000
0001
0000
1010
0010
0100
0000
,
0010
0010
1001
0000
0100
0100
0010
0000
0000
0000
0010
0010
1001
0000
1000
0000
,
0010
0010
0101
0010
1000
0000
1000
0000
0001
0000
1000
1000
0101
0000
0100
0000
,
0010
0100
0101
0010
1000
0010
0100
0010
2000
0000
0000
3000
0011
0100
0010
0100
,
1000
1000
0011
0100
0010
0100
0011
1000
0011
0000
0001
0000
1100
0010
0100
0001
,
0010
0010
1100
0000
0010
0100
0010
0010
0100
0010
1000
0000
0001
0000
1000
1000
,
0001
0000
1001
0000
0100
0100
0010
0100
0011
1000
0010
0000
1100
0010
0100
0100
,
0011
0000
1001
0000
0100
0000
0010
0100
0011
0000
0001
0000
1001
0000
1000
0000
,
0011
0010
1100
0000
0001
0000
1100
1000
0011
0001
0100
0100
1001
0100
0010
0100
,
0011
0000
1001
0000
0100
0000
0010
0100
0011
0000
1000
1000
0001
0001
0100
0010
,
1100
0000
1001
0000
0100
0000
0101
0010
1100
1000
0010
0010
1001
0000
0001
0001
,
1100
0100
0001
0010
0001
0000
0001
0001
1100
1000
0000
0000
0000
0100
0010
0100
,
0011
0000
0100
0010
1000
1000
0010
0001
1100
1000
0000
0000
0110
0000
0010
0001
,
1100
1000
0000
0000
0010
0100
0010
1000
0011
0001
0000
0000
1100
0000
1100
0001
,
1100
0000
1100
0010
0100
0010
0100
0100
0011
0001
1100
0000
1001
0000
1000
1000
,
0011
0000
1000
1000
0001
0000
1000
1000
0011
0000
1000
1000
0001
0000
1000
1000
,
0011
0000
1000
1000
1000
1000
0001
0000
0011
0001
1000
0000
1000
0000
0001
0001
,
1100
0000
0001
0001
0001
0000
0001
0001
1100
0000
0001
0001
1000
0000
0001
0001
,
1100
0000
0001
0001
1000
1000
0001
1000
1100
1000
0021
0000
1000
0000
0001
0031
,
1100
0000
0012
0010
0000
0003
1001
0000
1100
0000
0011
0000
1000
0000
0011
0000
,
1100
0000
0001
0001
1010
0000
0101
0000
0011
0000
2100
0000
0001
3000
1001
0000
,
1001
0000
0001
0001
1000
0000
1000
1000
0011
0000
1000
1000
0010
0000
0100
0010
,
1100
0000
1000
1000
0001
0000
0001
0001
1100
0010
0100
0100
0001
0000
1000
1000
,
0011
0000
0001
0001
1000
0000
1000
1000
0011
0000
1000
1000
0001
0000
1001
0000
,
0110
0000
1001
0000
0010
0000
1010
0000
0101
0000
1010
0000
0001
0000
1000
1000
,
0001
0000
1001
0000
1000
0000
1000
1000
0011
0000
1001
0000
1000
0000
1001
0000
,
0011
1100
0001
0101
1010
0101
0001
0101
,
1100
0011
1000
1001
0011
1100
0001
1001
,
1001
0000
1000
1000
0011
0000
1100
0000
1100
0000
0011
0000
0001
0000
1001
0000
,
1100
0000
0001
0001
1000
0000
1000
1000
0101
0000
1010
0000
1000
0000
0011
0100
,
0011
0000
1000
1000
0001
0000
1001
0001
1100
0010
1100
0100
1010
0000
0101
0000
,
1010
0000
0101
0000
0012
0000
1100
0000
1000
0000
1000
1003
0110
0000
1001
0000
,
1001
0110
0011
1100
1100
0011
1010
0101
,
0011
0000
1100
0000
1100
0000
0011
0000
1000
0000
1000
1000
0101
0000
1010
0000
,
1100
0000
0011
0000
0011
0000
1001
0000
1100
0001
1001
0000
1000
0000
0000
0000
,
0011
1000
0000
0000
0011
0000
0000
0000
,
0011
0000
0000
0000
;
